+ ShareSpark.net »  :::: Dubbed Zone (Dubbed English in Hindi) » English Movies Dubbed in Hindi
|- The Hunger Games Mockingjay Part 2 2015 x264 720p Dual Audio [Hindi + Eng] BluRay Esubs Exclusive By


TV and Appliances

The Hunger Games Mockingjay Part 2 2015 x264 720p Dual Audio [Hindi + Eng] BluRay Esubs Exclusive By

0 Members and 1 Guest are viewing this topic.

November 08, 2018, 06:16:10 PM
  • Feeling Special
  • Conqueror
  • Elite Member
  • *****
  • Topic Author
  • Thank You: 370
  • Reputation: 56
  • Activity:
    3%
  • Country: in
  • Posts: 460
  • Topics: 319
  • Join Date: Oct 2016
  • Born To Live
:title:
The Hunger Games Mockingjay Part 2 2015 x264 720p Dual Audio [Hindi + Eng] BluRay Esubs Exclusive By Maher






 :info:

Video
ID : 1
Format : AVC
Format/Info : Advanced Video Codec
Format profile : [email protected]
Format settings : CABAC / 5 Ref Frames
Format settings, CABAC : Yes
Format settings, RefFrames : 5 frames
Codec ID : V_MPEG4/ISO/AVC
Duration : 2 h 16 min
Bit rate : 949 kb/s
Width : 1 280 pixels
Height : 534 pixels
Display aspect ratio : 2.40:1
Frame rate mode : Constant
Frame rate : 23.976 (24000/1001) FPS
Color space : YUV
Chroma subsampling : 4:2:0
Bit depth : 8 bits
Scan type : Progressive
Bits/(Pixel*Frame) : 0.058
Stream size : 929 MiB (77%)
Writing library : x264 core 148 r2638 7599210
Default : Yes
Forced : No
Color range : Limited
Color primaries : BT.709
Matrix coefficients : BT.709

Audio #1
ID : 2
Format : AAC
Format/Info : Advanced Audio Codec
Format profile : LC
Codec ID : A_AAC-2
Duration : 2 h 16 min
Bit rate : 96.0 kb/s
Channel(s) : 2 channels
Channel positions : Front: L R
Sampling rate : 48.0 kHz
Frame rate : 46.875 FPS (1024 SPF)
Compression mode : Lossy
Delay relative to video : -21 ms
Stream size : 94.0 MiB (8%)
Default : No
Forced : No

Audio #2
ID : 3
Format : AAC
Format/Info : Advanced Audio Codec
Format profile : LC
Codec ID : A_AAC-2
Duration : 2 h 16 min
Bit rate : 192 kb/s
Channel(s) : 2 channels
Channel positions : Front: L R
Sampling rate : 48.0 kHz
Frame rate : 46.875 FPS (1024 SPF)
Compression mode : Lossy
Delay relative to video : -21 ms
Stream size : 186 MiB (15%)
Title : BY-MAHER
Language : Hindi
Default : Yes
Forced : Yes

Text
ID : 4
Format : UTF-8
Codec ID : S_TEXT/UTF8
Codec ID/Info : UTF-8 Plain Text
Duration : 2 h 4 min
Bit rate : 47 b/s
Count of elements : 1414
Stream size : 43.4 KiB (0%)
Default : Yes
Forced : No

 :ss:





 :download:




Share this topic on FacebookShare this topic on GoogleShare this topic on MySpaceShare this topic on TwitterShare this topic on Yahoo



Born To Live. So always Positive

Thanks given by:


November 09, 2018, 05:15:10 PM
Reply #1
  • Begginer
  • **
  • Thank You: 0
  • Reputation: 5
  • Activity:
    8.4%
  • Country: in
  • Posts: 82
  • Topics: 0
  • Join Date: May 2017
  • ShareSpark Member

Tags:
 

Related Topics





Back to top