+ ShareSpark.net »  :::: Bollywood Zone » Bollywood Movies (Pre Releases)
|- Andhadhun 2018 Hindi 720p PRE DVDRip x264 [MW]


Amazon Pantry Offer

Andhadhun 2018 Hindi 720p PRE DVDRip x264 [MW]

0 Members and 1 Guest are viewing this topic.

October 07, 2018, 03:29:59 PM
  • Legend Member
  • ****
  • Topic Author
  • Thank You: 1375
  • Reputation: 524
  • Activity:
    100%
  • Country: pk
  • Posts: 1689
  • Topics: 996
  • Join Date: Mar 2015
  • ShareSpark Member
Andhadhun 2018 Hindi 720p PRE DVDRip x264 [MW]










General
Format : Matroska
Format version : Version 4 / Version 2
File size : 1.46 GiB
Duration : 2 h 0 min
Overall bit rate : 1 729 kb/s

Video
ID : 1
Format : AVC
Format/Info : Advanced Video Codec
Format profile : [email protected]
Format settings : CABAC / 4 Ref Frames
Format settings, CABAC : Yes
Format settings, RefFrames : 4 frames
Codec ID : V_MPEG4/ISO/AVC
Duration : 2 h 0 min
Bit rate : 1 600 kb/s
Width : 1 280 pixels
Height : 540 pixels
Display aspect ratio : 2.40:1
Frame rate mode : Constant
Frame rate : 29.970 (30000/1001) FPS
Color space : YUV
Chroma subsampling : 4:2:0
Bit depth : 8 bits
Scan type : Progressive
Bits/(Pixel*Frame) : 0.077
Stream size : 1.35 GiB (92%)
Writing library : x264 core 155 r2901 7d0ff22
Default : Yes
Forced : No

Audio
ID : 2
Format : AAC
Format/Info : Advanced Audio Codec
Format profile : LC
Codec ID : A_AAC-2
Duration : 2 h 0 min
Bit rate : 128 kb/s
Channel(s) : 2 channels
Channel positions : Front: L R
Sampling rate : 48.0 kHz
Frame rate : 46.875 FPS (1024 SPF)
Compression mode : Lossy
Stream size : 111 MiB (7%)
Language : Hindi
Default : Yes
Forced : No






 :ss:















 :download:


























Share this topic on FacebookShare this topic on GoogleShare this topic on MySpaceShare this topic on TwitterShare this topic on Yahoo




Tags:
 

Related Topics

  Subject / Started by Replies Last post
1 Replies
691 Views
Last post October 06, 2018, 10:56:50 AM
by MatrixCode
0 Replies
809 Views
Last post October 06, 2018, 12:53:58 PM
by Special26
0 Replies
789 Views
Last post October 15, 2018, 01:04:48 AM
by RoBi007
1 Replies
131 Views
Last post November 06, 2018, 01:55:37 PM
by des83
0 Replies
46 Views
Last post November 11, 2018, 03:55:36 PM
by shahzaibjaan




Back to top