+ ShareSpark.net »  :::: Hollywood Zone » Hollywood Movies (Original Rips) » Small Size Hollywood Movies
|- Blade Runner 2049 HDRip 406MB H264 MPEG-4 AAC Spy1984


One Plus 6

Blade Runner 2049 HDRip 406MB H264 MPEG-4 AAC Spy1984

0 Members and 1 Guest are viewing this topic.

January 08, 2018, 02:17:05 PM
  • Addic7ed
  • Royal Member
  • ****
  • Topic Author
  • Thank You: 512
  • Reputation: 185
  • Activity:
    0%
  • Country: np
  • Posts: 1076
  • Topics: 702
  • Join Date: May 2017
  • #Me


 :plot:
Officer K (Ryan Gosling), a new blade runner for the Los Angeles Police Department, unearths a long-buried secret that has the potential to plunge what's left of society into chaos. His discovery leads him on a quest to find Rick Deckard (Harrison Ford), a former blade runner who's been missing for 30 years.


General

Format : MPEG-4
Format profile : Base Media / Version 2
Codec ID : mp42 (isom/mp42)
File size : 406 MiB
Duration : 2 h 43 min
Overall bit rate mode : Variable
Overall bit rate : 347 kb/s
Encoded date : UTC 2018-01-05 06:00:06
Tagged date : UTC 2018-01-05 06:00:06
gsst : 0
gstd : 9806738


Video

ID : 1
Format : AVC
Format/Info : Advanced Video Codec
Format profile : [email protected]
Format settings : 1 Ref Frames
Format settings, CABAC : No
Format settings, RefFrames : 1 frame
Format settings, GOP : M=1, N=60
Codec ID : avc1
Codec ID/Info : Advanced Video Coding
Duration : 2 h 43 min
Bit rate : 249 kb/s
Maximum bit rate : 1 390 kb/s
Width : 640 pixels
Height : 266 pixels
Display aspect ratio : 2.40:1
Frame rate mode : Constant
Frame rate : 23.976 (24000/1001) FPS
Color space : YUV
Chroma subsampling : 4:2:0
Bit depth : 8 bits
Scan type : Progressive
Bits/(Pixel*Frame) : 0.061
Stream size : 291 MiB (72%)
Tagged date : UTC 2018-01-05 06:01:35
Color range : Limited
Color primaries : BT.709
Transfer characteristics : BT.709
Matrix coefficients : BT.709




Audio

ID : 2
Format : AAC
Format/Info : Advanced Audio Codec
Format profile : LC
Codec ID : mp4a-40-2
Duration : 2 h 43 min
Bit rate mode : Variable
Bit rate : 96.0 kb/s
Maximum bit rate : 104 kb/s
Channel(s) : 2 channels
Channel positions : Front: L R
Sampling rate : 44.1 kHz
Frame rate : 43.066 FPS (1024 SPF)
Compression mode : Lossy
Stream size : 112 MiB (28%)
Title : IsoMedia File Produced by Google, 5-11-2011
Language : English


 :ss: :ss:





 :download: :download:








Share this topic on FacebookShare this topic on GoogleShare this topic on MySpaceShare this topic on TwitterShare this topic on Yahoo




Tags: aayush 
 

Related Topics

  Subject / Started by Replies Last post
0 Replies
335 Views
Last post December 26, 2017, 12:13:18 AM
by PSYCHO
0 Replies
520 Views
Last post December 26, 2017, 03:58:05 AM
by Rάήνίјάч1234
0 Replies
441 Views
Last post December 26, 2017, 04:21:49 AM
by Rάήνίјάч1234
0 Replies
959 Views
Last post January 08, 2018, 03:04:18 PM
by UnikAaYush
0 Replies
978 Views
Last post January 09, 2018, 01:03:39 PM
by UnikAaYush




Back to top